#TITLE:牛仔很忙;
#SUBTITLE:;
#ARTIST:周杰伦;
#TITLETRANSLIT:;
#SUBTITLETRANSLIT:;
#ARTISTTRANSLIT:;
#CREDIT:;
#BANNER:ţкæ_logo.jpg;
#BACKGROUND:ţкæ_bg.jpg;
#LYRICSPATH:;
#CDTITLE:Lan.png;
#MUSIC:ţкæ.mp3;
#OFFSET:-0.060;
#SAMPLESTART:100.000;
#SAMPLELENGTH:12.000;
#SELECTABLE:YES;
#BPMS:0.000=248.000;
#STOPS:;
#BGCHANGES:;
// cache tags:
#FIRSTBEAT:8.000;
#LASTBEAT:492.000;
#SONGFILENAME:Songs/Super Dancer Online/ţкæ/ţкæ.sm;
#HASMUSIC:1;
#HASBANNER:1;
#MUSICLENGTH:119.906;
// end cache tags

//---------------dance-single - sky----------------
#NOTES:
     dance-single:
     sky:
     Hard:
     9:
     1.000,1.000,1.000,0.025,0.217,792.000,175.000,3.000,0.000,7.000:

0000
0000
0000
0000
,
0000
0000
0000
0000
,
0100
0000
0100
0010
0000
0001
0010
0100
,
1000
0000
0010
0001
0000
0100
0010
0001
,
0100
0000
0010
0001
0000
1000
0010
0001
,
1000
0000
0010
0100
0000
0100
1000
0001
,
0010
0000
0010
0001
0000
1000
0001
0010
,
0100
0000
0001
1000
0000
0010
0001
1000
,
0010
0000
0001
1000
0000
0100
0001
1000
,
0100
0000
0001
0010
0000
0010
0100
1000
,
0100
0010
0101
0000
0010
0000
1100
0000
,
0010
0001
0110
0000
0100
0000
1010
0000
,
0100
0010
0101
0000
1000
0000
1010
0000
,
0010
0001
1100
0000
0001
0000
1010
0000
,
0010
0001
0110
0000
0100
0000
1010
0000
,
0010
0100
1100
0000
0010
0000
1100
0000
,
0010
0100
1010
0000
0100
0001
1100
0000
,
0011
0000
0000
0000
1100
0000
0000
0000
1000
0010
0100
0100
0100
0100
0100
0100
,
1010
0100
1000
0000
0110
1000
0001
0000
,
0101
0010
1000
0000
1010
0100
0010
0000
,
1010
0100
1000
0000
0110
0001
1000
0000
,
0110
1000
0001
0000
1100
0010
0001
0000
,
1010
0001
0100
0000
0110
1000
0001
0000
,
0101
0010
1000
0000
0101
0010
0001
0000
,
0100
0010
0100
0010
0100
0010
0100
0010
,
1000
0001
1000
0001
1000
0001
1000
0001
1000
0001
1000
0001
1000
0001
1000
0001
,
0110
1000
0010
0000
0101
0010
1000
0000
,
1100
0010
0001
0000
1010
0100
0001
0000
,
0101
0010
1000
0000
0101
0010
1000
0000
,
0101
0010
0001
0000
1010
0100
0001
0000
,
1100
0010
1000
0000
0011
0100
0001
0000
,
0110
1000
0001
0000
0110
0001
1000
0000
,
0100
0010
0100
0010
0100
0010
0100
0010
,
1000
0001
1000
0001
1000
0001
1000
0001
1000
0001
1000
0001
1000
0001
1000
0001
,
0110
1000
0100
0000
0110
0001
1000
0000
,
0101
0010
1000
0000
0110
1000
0001
0000
,
0101
0010
1000
0000
0110
0001
1000
0000
,
0110
0001
0100
0000
1100
0010
1000
0000
,
0101
0010
1000
0000
0110
1000
0100
0000
,
0101
0010
1000
0000
1010
0100
0001
0000
,
1101
0111
1110
1101
,
1011
0100
1000
0000
0110
0001
0100
0000
,
0101
0010
1000
0000
1010
0100
0001
0000
,
0011
1000
0001
0000
0101
0010
1000
0000
,
0110
0001
1000
0000
0110
1000
0001
0000
,
0101
1000
0001
0000
0110
1000
0100
0000
,
1001
0100
0010
0000
0110
1000
0001
0000
,
0110
1000
0100
0000
0110
1000
0001
0000
,
0100
0010
0100
0010
0100
0010
0100
0010
,
1000
0001
1000
0001
1000
0001
1000
0001
1000
0001
1000
0001
1000
0001
1000
0001
,
0110
1000
0100
0010
0100
0000
1000
0100
,
0010
0100
0010
0000
1000
0100
1000
0100
,
0010
0001
0010
0001
0100
0000
1000
0010
,
0100
0010
1000
0000
0000
0000
0000
0000
,
0100
0010
1000
0100
0010
0000
1000
0100
,
0010
0100
0001
0000
1000
0100
0010
0100
,
0010
0100
0010
0001
0010
0000
1000
0100
,
0010
0100
0010
0000
0000
0000
0000
0000
,
1000
0100
0010
0100
0010
0000
1000
0001
,
0010
0100
0010
0000
1000
0100
0010
0100
,
1000
0010
0100
0010
0100
0000
0001
0010
,
0100
0010
0100
0000
0000
0000
0000
0000
,
1000
0000
0010
0000
0100
0000
0010
0100
,
0010
0100
1000
0000
0010
0100
0010
0100
,
2000
0000
0000
0000
,
3011
0011
0011
0000
,
1100
0000
0000
0000
0000
0000
0100
0010
0100
0010
0100
0010
0100
0010
0100
0000
,
1001
0000
0000
0000
0000
0000
0100
0001
0100
0001
0100
0001
0100
0001
0100
0000
,
1010
0000
0000
0000
0000
0000
0100
1000
0100
1000
0100
1000
0100
1000
0100
0000
,
1010
0101
1010
0000
,
1100
0000
0000
0000
0000
0000
1000
0001
1000
0001
1000
0001
1000
0001
1000
0000
,
0110
0000
0000
0000
0000
0000
0100
0010
0100
0010
0100
0010
0100
0010
0100
0000
,
1001
0000
0000
0000
0000
0000
0001
0010
0001
0010
0001
0010
0001
0010
0001
0000
,
1100
0101
1010
0110
,
1000
0100
1000
0100
1000
0100
1000
0100
,
1000
0100
1000
0100
1000
0100
1000
0000
,
0101
0010
0001
0010
0001
0010
0001
0010
,
0001
0010
0001
0010
0001
0010
0001
0010
,
1001
0100
1000
0100
1000
0100
1000
0100
,
1000
0100
1000
0100
1000
0100
1000
0100
,
1010
0100
0010
0100
0010
0100
0010
0100
,
0010
0100
0010
0100
0010
0100
0010
0100
,
1001
0010
0001
0010
0001
0010
0001
0010
,
0001
0010
0001
0010
0001
0010
0001
0010
,
1100
0001
1000
0001
1000
0001
1000
0001
,
1000
0001
1000
0001
1000
0001
1000
0001
,
1010
0001
0010
0001
0010
0001
0010
0001
,
0010
0001
0010
0001
0010
0001
0010
0001
,
1000
0100
1000
0100
1000
0100
1000
0100
,
0001
0010
0100
0010
0100
0010
0100
0010
,
1001
0100
1010
0000
0101
1000
0110
0000
,
1001
0100
1010
0000
0011
0100
1010
0000
,
0101
0010
0101
0000
1010
0100
1001
0000
,
0110
0001
0011
0000
0100
1000
0011
0000
,
0101
0010
1100
0000
0101
0010
1100
0000
,
0011
0010
1100
0000
1010
0100
0011
0000
,
0110
1000
0011
0000
1100
0010
0101
0000
,
1010
0001
1100
0000
0101
0010
1001
0000
,
1010
0100
1010
0000
0101
0010
1100
0000
,
1010
0100
0011
0000
1100
0010
1100
0000
,
0011
0100
1010
0000
0110
0001
1010
0000
,
1100
0010
1001
0000
0011
0100
1010
0000
,
1100
0001
0110
0000
1001
0010
1100
0000
,
0101
0010
1100
0000
1010
0100
0011
0000
,
0110
1000
0101
0000
0011
0100
1100
0000
,
0010
0001
0010
0001
0010
0001
0010
0001
,
0110
0001
0010
0100
0010
0000
1000
0010
,
0101
0010
0100
0000
1000
0100
1000
0010
,
0101
0010
0100
1000
0010
0000
0100
1000
,
0011
0100
0011
0000
0110
0000
0000
0000
,
1001
0010
0100
1000
0100
0000
0001
0010
,
1100
0001
0010
0000
1000
0100
1000
0010
,
1100
0001
0010
0100
1000
0000
0010
0100
,
1010
0001
0100
0000
0110
0000
0110
0000
,
1010
0001
0100
0010
0001
0000
0100
1000
,
0011
0100
0010
0000
1000
0100
1000
0010
,
0101
0010
0100
0010
1000
0000
0010
0100
,
1010
0001
0110
0000
1010
0000
0000
0000
,
1010
0000
0100
0000
0010
0000
0001
0010
,
1100
0001
0010
0000
1000
0100
0010
0100
,
1002
0000
0000
0000
,
0113
1000
0210
0000
,
0000
0000
0000
0000
,
0300
0000
0000
0000
;
